Zvuk imam ali sliku nemam

1

Zvuk imam ali sliku nemam

offline
  • Pridružio: 23 Sep 2007
  • Poruke: 124

problem se javlja kada gledam klip,zvuk imam ali sliku nemam,instalirao sam kodeke ali opet isto mozda nisam potrefio,onda sam preko GSspoter probao da nadjem koji kodek treba ali mi izbaci Invalid AVI format-unknown Confused
onda sam probao da video konvertujem u AVI,mpg4 pa da ga tako pustim,ali onda mi izbacuje samo kao "slike"(odnosno nema videa nego kada pozicioniram izbaci mi samo sliku u tom delu videa) bez zvuka



Registruj se da bi učestvovao u diskusiji. Registrovanim korisnicima se NE prikazuju reklame unutar poruka.
offline
  • Pridružio: 13 Jan 2008
  • Poruke: 3657
  • Gde živiš: Stara Pazova

Nisi napisao u kom formatu je taj klip?



offline
  • Pridružio: 23 Sep 2007
  • Poruke: 124

neznam u kom je formatu

offline
  • Pridružio: 05 Feb 2008
  • Poruke: 2134

Aj,probacemo da otkrijemo o kom formatu je rec...

skini programce:
http://mediainfo.sourceforge.net/en

Ja koristim njega posto mi GSpot konfuzan Smile

Kad ga instaliras,desni klik na video fajl i klik na mediainfo ili otvoris media info i samo prevuces fajl u njegov prozor i citas podatke...

tebe zanima ono u crvenom kvadratu:


Ako nisi zadovoljan kolicinom podataka ides na VIEW->HTML tada ti se otvaraju podaci u sitna crevca, pa scrolujes do sekcije de pise VIDEO to izgleda ovako:


Kada je program u HTML modu prikazivanja tada mozes koristiti copy-paste opciju, pa ako mislis da je potrebno, kopiraj podatke ovde...

ako scrolujes nize imas detaljne podatke i o AUDIO delu fajla,al nas to ne zanima sad Smile

Mada je moguce da ti je fajl neispravan

offline
  • Pridružio: 23 Sep 2007
  • Poruke: 124

skinuo sam mediainfo ali nece da mi ga otvori ? sta se to desava nemam pojma,virusi nisu garant to 100%,mozda mi winzip nevalja

offline
  • Pridružio: 05 Feb 2008
  • Poruke: 2134

Ok, bez brige,evo postavio sam instalacioni folder na lin ispod pa ga skini
http://www.dump.ro/download.php?id=64911&act=3RrSfujZcMR6GFKF

otpakuj rar arhivu i dobices folder pod nazivom MediaInfo, kopiraj taj folder u C:\Program Files folder gde su ti i ostali programi.....
program pokreces klikom na MediaInfo fajl koji ti se nalazi u tom folderu,isti mozes postaviti za precicu na desktop,nakon klika otvorice ti se prozor u koji misem treba da prevuces film-fajl dakle drag-drop metodom to jest da ubacis fajl u prozor Smile
A mozes fajl uvuci i preko File->Open

ako zelis u buduce da program pozivas desnim klikom na bilo koji multimedijalni fajl ides na Options->Preferences pa kao na slici:


ja sam inace skinuo instalaciju i radi kod mene..stvarno mi nije jasno zasto kod tebe nece...
probaj odavde skinuti instalaciju ako neupali ono sa mojim folderom:
http://www.softpedia.com/get/Multimedia/Video/Other-VIDEO-Tools/MediaInfo.shtml

mozda si ti skinuo verziju za linuks a ne za windows

offline
  • Pridružio: 23 Sep 2007
  • Poruke: 124

Hvala,uspela instalacija,sa ovog drugog linka sam skinuo verziju sa instalerom,tnx

evo podataka o klipu:


General
Count : 246
Count of stream of this kind : 1
Kind of stream : General
Kind of stream : General
Stream identifier : 0
Inform : MPEG-4 (Base Media): 14.3 MiB, 5mn 26s
Count of video streams : 1
Count of audio streams : 1
Video_Format_List : AVC
Video_Format_WithHint_List : AVC
Codecs Video : AVC
Audio_Format_List : AAC
Audio_Format_WithHint_List : AAC
Audio codecs : AAC LC
File extension : mp4
Format : MPEG-4
Format : MPEG-4
Format/Extensions usually used : mp4 m4v m4a m4p 3gpp 3gp 3gpp2 3g2 k3g jpm jpx mqv
Format profile : Base Media
Codec ID : isom
Codec ID/Url : apple.com/quicktime/download/standalone.html
Codec : MPEG-4
Codec : MPEG-4
Codec/Extensions usually used : mp4 m4v m4a m4p 3gpp 3gp 3gpp2 3g2 k3g jpm jpx mqv
File size : 15043986
File size : 14.3 MiB
File size : 14 MiB
File size : 14 MiB
File size : 14.3 MiB
File size : 14.35 MiB
Duration : 326240
Duration : 5mn 26s
Duration : 5mn 26s 240ms
Duration : 5mn 26s
Duration : 00:05:26.240
Overall bit rate : 368905
Overall bit rate : 369 Kbps
Stream size : 188811
Stream size : 184 KiB (1%)
Stream size : 184 KiB
Stream size : 184 KiB
Stream size : 184 KiB
Stream size : 184.4 KiB
Stream size : 184 KiB (1%)
Proportion of this stream : 0.01255
Encoded date : UTC 1970-01-01 00:00:00
Tagged date : UTC 1970-01-01 00:00:00
File creation date : UTC 2009-01-04 20:34:03.520
File last modification date : UTC 2009-01-04 21:07:06.000

Video
Count : 133
Count of stream of this kind : 1
Kind of stream : Video
Kind of stream : Video
Stream identifier : 0
Inform : 300 Kbps, 576*320 (16/9), at 25.000 fps, AVC (Baseline@L3.0) (1 Ref Frames)
ID : 1
Format : AVC
Format/Info : Advanced Video Codec
Format/Url : developers.videolan.org/x264.html
Format profile : Baseline@L3.0
Format settings : 1 Ref Frames
Format settings, CABAC : No
Format settings, CABAC : No
Format settings, ReFrames : 1
Format settings, ReFrames : 1 frame
Codec ID : avc1
Codec ID/Info : Advanced Video Coding
Codec ID/Url : apple.com/quicktime/download/standalone.html
Codec : AVC
Codec : AVC
Codec/Family : AVC
Codec/Info : Advanced Video Codec
Codec/Url : developers.videolan.org/x264.html
Codec/CC : avc1
Codec profile : Baseline@L3.0
Codec settings : 1 Ref Frames
Codec settings, CABAC : No
Codec_Settings_RefFrames : 1
Duration : 326240
Duration : 5mn 26s
Duration : 5mn 26s 240ms
Duration : 5mn 26s
Duration : 00:05:26.240
Bit rate mode : VBR
Bit rate mode : Variable
Bit rate : 300114
Bit rate : 300 Kbps
Width : 576
Width : 576 pixels
Height : 320
Height : 320 pixels
Pixel Aspect Ratio : 1.000
Display aspect ratio : 1.800
Display aspect ratio : 16/9
Frame rate mode : CFR
Frame rate mode : Constant
Frame rate : 25.000
Frame rate : 25.000 fps
Frame count : 8156
Resolution : 24
Resolution : 24 bits
Colorimetry : 4:2:0
Scan type : Progressive
Scan type : Progressive
Interlacement : PPF
Interlacement : Progressive
Bits/(Pixel*Frame) : 0.065
Stream size : 12238649
Stream size : 11.7 MiB (81%)
Stream size : 12 MiB
Stream size : 12 MiB
Stream size : 11.7 MiB
Stream size : 11.67 MiB
Stream size : 11.7 MiB (81%)
Proportion of this stream : 0.81352
Encoded date : UTC 1970-01-01 00:00:00
Tagged date : UTC 1970-01-01 00:00:00

Audio
Count : 121
Count of stream of this kind : 1
Kind of stream : Audio
Kind of stream : Audio
Stream identifier : 0
Inform : 64.2 Kbps, 48.0 KHz, 2 channels, AAC (Version 4) (LC)
ID : 2
Format : AAC
Format/Info : Advanced Audio Codec
Format version : Version 4
Format profile : LC
Format settings, SBR : No
Format settings, SBR : No
Codec ID : 40
Codec : A_AAC/MPEG4/LC
Codec : AAC LC
Codec/Family : AAC
Codec/Info : AAC Low Complexity
Codec/CC : 40
Duration : 326144
Duration : 5mn 26s
Duration : 5mn 26s 144ms
Duration : 5mn 26s
Duration : 00:05:26.144
Bit rate mode : VBR
Bit rate mode : Variable
Bit rate : 64180
Bit rate : 64.2 Kbps
Channel(s) : 2
Channel(s) : 2 channels
Channel positions : L R
Channel positions : 2/0
Sampling rate : 48000
Sampling rate : 48.0 KHz
SamplingCount : 15654912
Resolution : 16
Resolution : 16 bits
Stream size : 2616526
Stream size : 2.50 MiB (17%)
Stream size : 2 MiB
Stream size : 2.5 MiB
Stream size : 2.50 MiB
Stream size : 2.495 MiB
Stream size : 2.50 MiB (17%)
Proportion of this stream : 0.17393
Encoded date : UTC 1970-01-01 00:00:00
Tagged date : UTC 1970-01-01 00:00:00

offline
  • Pridružio: 05 Feb 2008
  • Poruke: 2134

Codec ID/Info : Advanced Video Coding
Codec ID/Url : http://www.apple.com/quicktime/download/standalone.html
Format : AVC
Format/Info : Advanced Video Codec
Format/Url : http://developers.videolan.org/x264.html


Apple H.264 Advanced Video Codec (AVC) je u pitanju kolko vidim...
to si i sam mogao videti iz linka koji ti je MediaInfo prilozio....

Dali si probao da ga pustis u QuickTime-u posto je valjda on integrisan u njega,nemoj da me drzis za rec posto nisam konzumirao ovaj kodek Smile

Neznam kakvu masinu imas ali H.264 kompresija je dosta jaka pa zna da uspori racunar..pa se desi da slika kasni za tonom ili preskace itd....al novije masine nemaju ti problema..

Sacekaj odgovor pametnijih...posto ovo ipak nije moj fah....

offline
  • Pridružio: 23 Sep 2007
  • Poruke: 124

P3 800MHz
da zvuk imam ali sliku nemam uopste a komp baguje strasno tokom pustanja,da li to moze resiti softver Confused
probao sam da konvertujem,to sam vec rekao,onda mi samo izbacuje kao slike bez zvuka

offline
  • m4rk0  Male
  • Administrator
  • Administrator tech foruma
  • Marko Vasić
  • Gladijator - Maximus Decimus Meridius
  • Pridružio: 14 Jan 2005
  • Poruke: 15766
  • Gde živiš: Majur (Colosseum)

Skini KMPLayer i pri instalaciji, u jednom delu, imas da izaberes kvalitet reprodukcije, pa ti je ponudjeno: Speed - 1 GHz, Normal, Quality - 3Ghz i ti tu cekiraj (oznaci) Speed - 1 GHz. Nakon zavrsetka instalacije pokreni KMPlayer i prevuci film koji zelis da poustis i to je to.

Doticni player mozes preuzeti odavde:

http://www.filehippo.com/download_kmplayer/downloa.....be0f37bcd/

Ko je trenutno na forumu
 

Ukupno su 618 korisnika na forumu :: 23 registrovanih, 4 sakrivenih i 591 gosta   ::   [ Administrator ] [ Supermoderator ] [ Moderator ] :: Detaljnije

Najviše korisnika na forumu ikad bilo je 3466 - dana 01 Jun 2021 17:07

Korisnici koji su trenutno na forumu:
Korisnici trenutno na forumu: AF-1, ALBION101, Arhiv, babaroga, bojank, BraneS, cenejac111, dule clio, filipovicdj, Georgius, GreenMan, Insan, Mixelotti, Panonsky, pein, Regrut Boskica, riva, sabros, sakota79, Snorks, sokars, Steeeefan, trutcina