Konverzija videa za reprodukciju na stand-alone DVD playeru

1

Konverzija videa za reprodukciju na stand-alone DVD playeru

offline
  • Pridružio: 11 Nov 2009
  • Poruke: 64

Pozdrav,

Skinuo sam neki video materijal, ali sam skinuo u ...720p.BluRay.x264.mp4 formatu jer nije bilo u drugom formatu. E sada, ja posjedujem Vivax K-530 DVD stand-alone player (koji je prikljucen na HD Ready LCD) i koji ne moze reprodukovati ovaj mp4 format, ali sjajno radi sa AVI tj. divx formatima. Vec dvije godine gledam divix-e i sve fercera bez problema.
Pokusao sam sa tri-cetiri programa da konvertujem iz mp4 u divx ili xvid i to odradim ali player ne moze pokrenuti taj fajl. Ocito nisam dovoljno "vican" da podesim sve parametre (bitrate isl).

Sta trebam uraditi ili koji program koristiti da ovo uspjesno konvertujem.

Hvala



Registruj se da bi učestvovao u diskusiji. Registrovanim korisnicima se NE prikazuju reklame unutar poruka.
offline
  • Pridružio: 01 Nov 2007
  • Poruke: 1376

Navedi nazive programa sa kojima si pokušao konvertovanje, da ne nagađamo...

Moj predlog, Format Factory.



offline
  • Pridružio: 18 Dec 2005
  • Poruke: 340

Takođe, MediaInfo log dobijenog fajla bi možda mogao da nam kaže u čemu je problem sa fajlom koji odbija da radi.

offline
  • Pridružio: 11 Nov 2009
  • Poruke: 64

Napisano: 14 Jan 2014 14:38

Probao, ali nikako ne ide. Evo u nastavku vam dostavljam dvije info. Prvi je info o mp4 fajlu koji zelim konvertovati u divx ili xvid i drugi je info o nekakvom postojecem fajlu koji mogu reprodukovati na playeru bez problema. Pa cisto da mi date uputu oko podesavanja. Hvala

Prvi fajl (mp4):

General
Complete name : D:\...
Format : MPEG-4
Format profile : Base Media
Codec ID : isom
File size : 484 MiB
Duration : 1h 0mn
Overall bit rate mode : Variable
Overall bit rate : 1 113 Kbps
Encoded date : UTC 2013-10-16 23:11:06
Tagged date : UTC 2013-10-16 23:11:06

Video
ID : 1
Format : AVC
Format/Info : Advanced Video Codec
Format profile : High@L4.0
Format settings, CABAC : Yes
Format settings, ReFrames : 4 frames
Codec ID : avc1
Codec ID/Info : Advanced Video Coding
Duration : 1h 0mn
Bit rate : 985 Kbps
Maximum bit rate : 5 756 Kbps
Width : 1 280 pixels
Height : 576 pixels
Display aspect ratio : 2.222
Frame rate mode : Constant
Frame rate : 23.976 fps
Color space : YUV
Chroma subsampling : 4:2:0
Bit depth : 8 bits
Scan type : Progressive
Bits/(Pixel*Frame) : 0.056
Stream size : 428 MiB (88%)
Writing library : x264 core 138 r2358 9e941d1

Audio
ID : 2
Format : AAC
Format/Info : Advanced Audio Codec
Format profile : LC
Codec ID : 40
Duration : 1h 0mn
Bit rate mode : Variable
Bit rate : 124 Kbps
Maximum bit rate : 138 Kbps
Channel(s) : 2 channels
Channel positions : Front: L R
Sampling rate : 48.0 KHz
Compression mode : Lossy
Stream size : 54.0 MiB (11%)
Language : Danish
Encoded date : UTC 2013-10-16 21:19:59
Tagged date : UTC 2013-10-16 23:11:10



Drugi fajl (xvid koji mogu reprodukovati):

General
Complete name : D:\...
Format : AVI
Format/Info : Audio Video Interleave
File size : 350 MiB
Duration : 43mn 56s
Overall bit rate mode : Variable
Overall bit rate : 1 113 Kbps
Writing application : VirtualDubMod 1.5.10.2 (build 2540/release)
Writing library : VirtualDubMod build 2540/release

Video
ID : 0
Format : MPEG-4 Visual
Format profile : Advanced Simple@L5
Format settings, BVOP : 2
Format settings, QPel : No
Format settings, GMC : No warppoints
Format settings, Matrix : Default (H.263)
Codec ID : XVID
Codec ID/Hint : XviD
Duration : 43mn 56s
Bit rate : 980 Kbps
Width : 624 pixels
Height : 352 pixels
Display aspect ratio : 16:9
Frame rate : 25.000 fps
Color space : YUV
Chroma subsampling : 4:2:0
Bit depth : 8 bits
Scan type : Progressive
Compression mode : Lossy
Bits/(Pixel*Frame) : 0.178
Stream size : 308 MiB (88%)
Writing library : XviD 1.2.1 (UTC 2008-12-04)

Audio : 1
Format : MPEG Audio
Format version : Version 1
Format profile : Layer 3
Mode : Joint stereo
Mode extension : MS Stereo
Codec ID : 55
Codec ID/Hint : MP3
Duration : 43mn 56s
Bit rate mode : Variable
Bit rate : 121 Kbps
Nominal bit rate : 128 Kbps
Channel(s) : 2 channels
Sampling rate : 48.0 KHz
Compression mode : Lossy
Stream size : 37.9 MiB (11%)
Alignment : Aligned on interleaves
Interleave, duration : 24 ms (0.60 video frame)
Interleave, preload duration : 512 ms
Writing library : LAME3.98r

Dopuna: 14 Jan 2014 18:13

Uspio sam sa Any video converter-om i to sa sledecim podesavanjima:

Rezolucija: 624x352
Kvaliet: Visok
Video codec: xvid
Video bitrate: 2000
Frame rate: 25.
Audio: MP3, 128, 44100

Mislim da bi ovo trebalo dobro biti.

offline
  • Pridružio: 18 Dec 2005
  • Poruke: 340

Dobro. Mislio sam na MediaInfo log fajla koji si ti dobio a koji neće da radi da bismo videli u čemu je probem. Ali, čim si uspeo, nema veze.

offline
  • m4rk0  Male
  • Administrator
  • Administrator tech foruma
  • Marko Vasić
  • Gladijator - Maximus Decimus Meridius
  • Pridružio: 14 Jan 2005
  • Poruke: 15766
  • Gde živiš: Majur (Colosseum)

Idealno bi bilo da zadrzis isti audio i video bitrate koji ti se nalazi na originalu.

offline
  • Pridružio: 11 Nov 2009
  • Poruke: 64

m4rk0 ::Idealno bi bilo da zadrzis isti audio i video bitrate koji ti se nalazi na originalu.

To mislis:

Bit rate : 985 Kbps
Maximum bit rate : 5 756 Kbps

Ali u Any video converteru je moguce odrediti samo konstantan bitrate. Koliko da stavim, sada je 2000?

Pozzz

offline
  • Pridružio: 18 Dec 2005
  • Poruke: 340

m4rk0 ::Idealno bi bilo da zadrzis isti audio i video bitrate koji ti se nalazi na originalu.
Ne razumem, zašto bi to bilo idealno?

offline
  • higuy  Male
  • Legendarni građanin
  • penzionisani tabijatlija
  • crni hronicar
  • Pridružio: 21 Apr 2010
  • Poruke: 8565
  • Gde živiš: Dubocica

ilidan ::m4rk0 ::Idealno bi bilo da zadrzis isti audio i video bitrate koji ti se nalazi na originalu.
Ne razumem, zašto bi to bilo idealno?


Shvatam ja tebe, sta hoces Maretu da kazes. Svaka rekompresija, a ovde je mora biti, narusava kvalitet. Koriscenje lossy kodeka je u osnovi, a DIVX/XVID su takvi. MP3 za audio, takodje. Bebee Dol

offline
  • m4rk0  Male
  • Administrator
  • Administrator tech foruma
  • Marko Vasić
  • Gladijator - Maximus Decimus Meridius
  • Pridružio: 14 Jan 2005
  • Poruke: 15766
  • Gde živiš: Majur (Colosseum)

ilidan ::m4rk0 ::Idealno bi bilo da zadrzis isti audio i video bitrate koji ti se nalazi na originalu.
Ne razumem, zašto bi to bilo idealno?


Zato sto bi svako menjanje njihove vrednosti dodatno pogorsavalo kvalitet koji je vec pogorsan kompresijom u drugi format u odnosu na source.

Ko je trenutno na forumu
 

Ukupno su 557 korisnika na forumu :: 40 registrovanih, 2 sakrivenih i 515 gosta   ::   [ Administrator ] [ Supermoderator ] [ Moderator ] :: Detaljnije

Najviše korisnika na forumu ikad bilo je 3466 - dana 01 Jun 2021 17:07

Korisnici koji su trenutno na forumu:
Korisnici trenutno na forumu: -[CoA]-, A.R.Chafee.Jr., aljosa7, Apok, ArmyBoss, bojanM84, BokaVukovic, BSD, Chainsaw, Cirkon, darkstar101, dragoljub11987, gagidjuric, HrcAk47, Imperator41, kaptain, Klecaviks, kvcali, Marko Marković, milenko crazy north, MilosKop, Miskohd, mk, repac, Rote Baron, royst33, sakota79, sasa51, segax1, Sibin, Sirius, sokars, sovanova95, tomigun, Trpe Grozni, Vlada78, voja64, YU-UKI, znaisha, 2001