TV ne moze da pokrene film sa usb-a

TV ne moze da pokrene film sa usb-a

offline
  • Pridružio: 18 Jan 2012
  • Poruke: 477

Od ranije jos praktikujem da skinem neki film sa kompa, prebacim ga na flesku i onda ubacim u TV i gledam. Nikad jos nijesam imao problema sa tim i sve je radilo odlicno Very Happy Onda, prije par dana skinem hobitta, stavim ga na usb, prikljucim sa TV-om, kad ono - ne radi! Ne moze uopste da se pokrene film. To me bas frustrira. Evo sta kaze MediaInfo o Hobitu:

General
Complete name : F:\The Hobbit An Unexpected Journey (2012) [1080p]\The.Hobbit.An.Unexpected.Journey.2012.1080p.BRrip.x264.GAZ.YIFY.mp4
Format : MPEG-4
Format profile : Base Media
Codec ID : isom
File size : 2.50 GiB
Duration : 2h 49mn
Overall bit rate mode : Variable
Overall bit rate : 2 110 Kbps
Encoded date : UTC 2013-02-28 18:20:47
Tagged date : UTC 2013-02-28 18:20:47

Video
ID : 1
Format : AVC
Format/Info : Advanced Video Codec
Format profile : High@L4.0
Format settings, CABAC : Yes
Format settings, ReFrames : 5 frames
Codec ID : avc1
Codec ID/Info : Advanced Video Coding
Duration : 2h 49mn
Bit rate : 2 012 Kbps
Maximum bit rate : 10.1 Mbps
Width : 1 920 pixels
Height : 800 pixels
Display aspect ratio : 2.40:1
Frame rate mode : Constant
Frame rate : 23.976 fps
Color space : YUV
Chroma subsampling : 4:2:0
Bit depth : 8 bits
Scan type : Progressive
Bits/(Pixel*Frame) : 0.055
Stream size : 2.38 GiB (95%)
Title : hobbit.an.unexpected.journey.2012.1080p.bluray.x264-sparks.mkv.264#trackID=1:fps=23.976@GPAC0.5.1-DEV-rev4283
Writing library : x264 core 129 r2245 bc13772
Encoding settings : cabac=1 / ref=5 / deblock=1:0:0 / analyse=0x3:0x113 / me=hex / subme=7 / psy=1 / psy_rd=1.00:0.00 / mixed_ref=1 / me_range=16 / chroma_me=1 / trellis=1 / 8x8dct=1 / cqm=0 / deadzone=21,11 / fast_pskip=1 / chroma_qp_offset=-2 / threads=6 / lookahead_threads=1 / sliced_threads=0 / nr=0 / decimate=1 / interlaced=0 / bluray_compat=0 / constrained_intra=0 / bframes=8 / b_pyramid=2 / b_adapt=1 / b_bias=0 / direct=1 / weightb=1 / open_gop=0 / weightp=2 / keyint=240 / keyint_min=23 / scenecut=40 / intra_refresh=0 / rc_lookahead=40 / rc=2pass / mbtree=1 / bitrate=2012 / ratetol=1.0 / qcomp=0.60 / qpmin=10 / qpmax=51 / qpstep=4 / cplxblur=20.0 / qblur=0.5 / ip_ratio=1.40 / aq=1:1.00
Encoded date : UTC 2013-02-28 18:20:47
Tagged date : UTC 2013-02-28 18:23:31

Audio
ID : 2
Format : AAC
Format/Info : Advanced Audio Codec
Format profile : LC
Codec ID : 40
Duration : 2h 49mn
Bit rate mode : Variable
Bit rate : 96.0 Kbps
Maximum bit rate : 129 Kbps
Channel(s) : 2 channels
Channel positions : Front: L R
Sampling rate : 48.0 KHz
Compression mode : Lossy
Stream size : 116 MiB (5%)
Language : English
Encoded date : UTC 2013-02-28 14:55:13
Tagged date : UTC 2013-02-28 18:23:31

Da napomenem da Tv moze da mi podrzi Full HD. Sad sam malo cackao po onima uputstvima i evo sta pise koje kodeke sa mp4 podrzava (valjda je to to):
-mp4: video-(MPEG4, Xvid1.00, Xvid 1.01, Xvid 1.02, Xvid 1.03, Xvid 1.10-beta1/2, H-264)
audio-(PCM/mp3)

Imate li ideju o cemu se odje radi i kako da pokrenem ovog mog hobita? Mr. Green



Registruj se da bi učestvovao u diskusiji. Registrovanim korisnicima se NE prikazuju reklame unutar poruka.
offline
  • higuy  Male
  • Legendarni građanin
  • penzionisani tabijatlija
  • crni hronicar
  • Pridružio: 21 Apr 2010
  • Poruke: 8565
  • Gde živiš: Dubocica

Model TV-a je ...

Ali tacan model i proizvodjac sa stikera na poledjini TV-a. Ako imas cime slikaj, i postavi sliku u temi.



Ko je trenutno na forumu
 

Ukupno su 573 korisnika na forumu :: 38 registrovanih, 3 sakrivenih i 532 gosta   ::   [ Administrator ] [ Supermoderator ] [ Moderator ] :: Detaljnije

Najviše korisnika na forumu ikad bilo je 3028 - dana 22 Nov 2019 07:47

Korisnici koji su trenutno na forumu:
Korisnici trenutno na forumu: 8u47, _Sale, aleksmajstor, Alexandar-1973, alkatraz080, amaterSRB, Bane san, cole77, darkangel, Dimitrise93, doklevise, dragon986, HrcAk47, Insan, jredwood20, Kaplar2, Konda, Kruger, Lazarus, Libertas, Marko Marković, mercedesamg, Milan A. Nikolic, milan47, milos.cbr, Misirac, moldway, mrav pesadinac, nemkea71, pavle_pzs, repac, royst33, Sirius, Trpe Grozni, vlvl, voja64, x9, zixmix